VA - Eccentric Soul-The Dynamic Label (2012) CD Rip

Posted on 28 Mar 04:34 | by LeeAndro | 93 views
VA - Eccentric Soul-The Dynamic Label (2012) CD Rip
Artist: VA
Title: Eccentric Soul-The Dynamic Label
Year Of Release: 2012
Label: Numero Group[NUM043]
Genre: Soul, Funk, R&B
Quality: FLAC (tracks + .cue,log)
Total : 55:13
Total Size: 231 MB(+3%)


Tracklist

01. The Commands - Hey Its Love
02. Little Jr. Jesse & The Tear Drops - Give Your Love to Me
03. The Tonettes - I Gotta Know
04. Doc & Sal - Can't Get You Offa My Mind
05. The Commands - I've Got Love for My Baby
06. Willie Cooper & The Webs - You Don't Love Nobody
07. Little Jr. Jesse & The Tear Drops - Ain't No Big Thing
08. The Commands - No for You
09. Webs - Little Girl Blue
10. The Tonettes - My Heart Can Feel the Pain
11. Doc & Sal - Cry & Wonder Why
12.The Commands - Don't Be Afraid to Love Me
13. Willie Cooper & The Webs - I Can't Take It No More
14. Don & The Doves - Together
15. Webs - Don't Ever Hurt Me
16. The Commands - Must Be Alright
17. Bobby Blackmon & The Soul Express - She's Gotta Have Soul
18. Doc & Sal - Laughing to Keep From Crying
19. Webs - Try Loving Me
20. The Commands - Too Late to Cry
21. Doc & Sal - My Dream

Born out of the largesse created from Rene & Rene's Hot 100 Tejano tornado "Angelito," Dynamic Records was but one of half a dozen labels run by San Antonio music and real estate mogul Abe Epstein. His flagship group, the Commands, took their AFB circuit-honed chops up to the middle of the charts in 1966 with "No For You," paving the way for 20 other soulful singles over Dynamic's impressive two and a half year run. Epstein's open door policy led to a diverse cross section of the population conveg inside his studio on General McMullan Drive, as whites, blacks, and Latinos were swapped in and out of groups as needed. That melting pot mentality is well represented by the Tonettes, Little Jr. Jesse & the Tear Drops, Don & the Doves, Willie Cooper & the Webs, Bobby Blackmon & his Soul Express, and Doc & Sal. Compiled here are 21 (28 on the 2LP) of Dynamic's most intriguing sides, representing the first layer of a treasure trove of San Antonio soul we'll be unleashing over the coming year.

 EAC LogExact Audio Copy V1.0 beta 3 from 29. August 2011

EAC extraction logfile from 24. February 2013, 10:46

Various / Eccentric Soul: The Dynamic Label

Used drive : HP DVD Writer 1260r Adapter: 0 ID: 0

Read mode : Secure
Utilize accurate stream : Yes
Defeat audio cache : Yes
Make use of C2 pointers : No

Read offset correction : 48
Overread into Lead-In and Lead-Out : No
Fill up missing offset samples with silence : Yes
Delete leading and trailing silent blocks : No
Null samples used in CRC calculations : Yes
Used interface : Native Win32 interface for Win NT & 2000
Gap handling : Appended to previous track

Used output format : User Defined Encoder
Selected bitrate : 1024 kBit/s
Quality : High
Add ID3 tag : No
Command line compressor : C:\Program Files (x86)\FLAC\flac.exe
Additional command line options : -8 -V -T "ARTIST=%artist%" -T "TITLE=%title%" -T "ALBUM=%albumtitle%" -T "DATE=%year%" -T "TRACKNUMBER=%tracknr%" -T "GENRE=%genre%" -T "PERFORMER=%albuminterpret%" -T "COMPOSER=%composer%" %haslyrics%--tag-from-file=LYRICS="%lyricsfile%"%haslyrics% -T "ALBUMARTIST=%albumartist%" -T "DISCNUMBER=%cdnumber%" -T "TOTALDISCS=%totalcds%" -T "TOTALTRACKS=%numtracks%" -T "COMMENT=%comment%" %source% -o %dest%

TOC of the extracted CD

Track | Start | Length | Start sector | End sector
---------------------------------------------------------
1 | 0:00.00 | 2:22.22 | 0 | 10671
2 | 2:22.22 | 1:56.28 | 10672 | 19399
3 | 4:18.50 | 1:39.43 | 19400 | 26867
4 | 5:58.18 | 2:36.65 | 26868 | 38632
5 | 8:35.08 | 3:11.08 | 38633 | 52965
6 | 11:46.16 | 1:59.36 | 52966 | 61926
7 | 13:45.52 | 2:46.36 | 61927 | 74412
8 | 16:32.13 | 3:08.56 | 74413 | 88568
9 | 19:40.69 | 2:23.50 | 88569 | 99343
10 | 22:04.44 | 2:35.04 | 99344 | 110972
11 | 24:39.48 | 3:15.53 | 110973 | 125650
12 | 27:55.26 | 2:37.55 | 125651 | 137480
13 | 30:33.06 | 2:07.20 | 137481 | 147025
14 | 32:40.26 | 2:27.47 | 147026 | 158097
15 | 35:07.73 | 2:51.55 | 158098 | 170977
16 | 37:59.53 | 1:49.19 | 170978 | 179171
17 | 39:48.72 | 2:16.16 | 179172 | 189387
18 | 42:05.13 | 2:59.59 | 189388 | 202871
19 | 45:04.72 | 2:59.35 | 202872 | 216331
20 | 48:04.32 | 4:10.15 | 216332 | 235096
21 | 52:14.47 | 2:58.74 | 235097 | 248520

Track 1

Filename C:\Various - Eccentric Soul- The Dynamic Label (2013) [FLAC]\01 - The Commands - Hey Its Love.wav

Pre-gap length 0:00:02.00

Peak level 86.3 %
Extraction speed 2.2 X
Track quality 100.0 %
Test CRC D430EB5D
Copy CRC D430EB5D
Track not present in AccurateRip database
Copy OK

Track 2

Filename C:\Various - Eccentric Soul- The Dynamic Label (2013) [FLAC]\02 - Little Jr. Jesse & The Tear Drops - Give Your Love to Me.wav

Pre-gap length 0:00:01.53

Peak level 92.2 %
Extraction speed 2.3 X
Track quality 100.0 %
Test CRC 8D85BBD7
Copy CRC 8D85BBD7
Track not present in AccurateRip database
Copy OK

Track 3

Filename C:\Various - Eccentric Soul- The Dynamic Label (2013) [FLAC]\03 - The Tonettes - I Gotta Know.wav

Pre-gap length 0:00:01.30

Peak level 74.7 %
Extraction speed 1.8 X
Track quality 99.8 %
Test CRC CA0B5067
Copy CRC CA0B5067
Track not present in AccurateRip database
Copy OK

Track 4

Filename C:\Various - Eccentric Soul- The Dynamic Label (2013) [FLAC]\04 - Doc & Sal - Can't Get You Offa My Mind.wav

Pre-gap length 0:00:00.81

Peak level 84.3 %
Extraction speed 2.6 X
Track quality 100.0 %
Test CRC 6FE0CD9B
Copy CRC 6FE0CD9B
Track not present in AccurateRip database
Copy OK

Track 5

Filename C:\Various - Eccentric Soul- The Dynamic Label (2013) [FLAC]\05 - The Commands - I've Got Love for My Baby.wav

Pre-gap length 0:00:01.74

Peak level 81.8 %
Extraction speed 2.9 X
Track quality 100.0 %
Test CRC F406A198
Copy CRC F406A198
Track not present in AccurateRip database
Copy OK

Track 6

Filename C:\Various - Eccentric Soul- The Dynamic Label (2013) [FLAC]\06 - Willie Cooper & The Webs - You Don't Love Nobody.wav

Pre-gap length 0:00:01.77

Peak level 77.8 %
Extraction speed 2.7 X
Track quality 100.0 %
Test CRC C68197A0
Copy CRC C68197A0
Track not present in AccurateRip database
Copy OK

Track 7

Filename C:\Various - Eccentric Soul- The Dynamic Label (2013) [FLAC]\07 - Little Jr. Jesse & The Tear Drops - Ain't No Big Thing.wav

Pre-gap length 0:00:02.02

Peak level 83.1 %
Extraction speed 3.0 X
Track quality 100.0 %
Test CRC 4FCF07E5
Copy CRC 4FCF07E5
Track not present in AccurateRip database
Copy OK

Track 8

Filename C:\Various - Eccentric Soul- The Dynamic Label (2013) [FLAC]\08 - The Commands - No for You.wav

Pre-gap length 0:00:01.66

Peak level 98.8 %
Extraction speed 3.3 X
Track quality 100.0 %
Test CRC 60538569
Copy CRC 60538569
Track not present in AccurateRip database
Copy OK

Track 9

Filename C:\Various - Eccentric Soul- The Dynamic Label (2013) [FLAC]\09 - Webs - Little Girl Blue.wav

Pre-gap length 0:00:01.84

Peak level 78.3 %
Extraction speed 3.2 X
Track quality 100.0 %
Test CRC 51BD94C2
Copy CRC 51BD94C2
Track not present in AccurateRip database
Copy OK

Track 10

Filename C:\Various - Eccentric Soul- The Dynamic Label (2013) [FLAC]\10 - The Tonettes - My Heart Can Feel the Pain.wav

Pre-gap length 0:00:01.70

Peak level 74.6 %
Extraction speed 2.8 X
Track quality 99.9 %
Test CRC F681492B
Copy CRC F681492B
Track not present in AccurateRip database
Copy OK

Track 11

Filename C:\Various - Eccentric Soul- The Dynamic Label (2013) [FLAC]\11 - Doc & Sal - Cry & Wonder Why.wav

Pre-gap length 0:00:01.36

Peak level 89.5 %
Extraction speed 3.6 X
Track quality 100.0 %
Test CRC 7E0BE80C
Copy CRC 7E0BE80C
Track not present in AccurateRip database
Copy OK

Track 12

Filename C:\Various - Eccentric Soul- The Dynamic Label (2013) [FLAC]\12 - The Commands - Don't Be Afraid to Love Me.wav

Pre-gap length 0:00:01.44

Peak level 85.3 %
Extraction speed 3.6 X
Track quality 100.0 %
Test CRC C8F68B05
Copy CRC C8F68B05
Track not present in AccurateRip database
Copy OK

Track 13

Filename C:\Various - Eccentric Soul- The Dynamic Label (2013) [FLAC]\13 - Willie Cooper & The Webs - I Can't Take It No More.wav

Pre-gap length 0:00:02.61

Peak level 80.1 %
Extraction speed 3.5 X
Track quality 100.0 %
Test CRC A8E1EB3F
Copy CRC A8E1EB3F
Track not present in AccurateRip database
Copy OK

Track 14

Filename C:\Various - Eccentric Soul- The Dynamic Label (2013) [FLAC]\14 - Don & The Doves - Together.wav

Pre-gap length 0:00:01.69

Peak level 71.5 %
Extraction speed 3.7 X
Track quality 100.0 %
Test CRC 209454E2
Copy CRC 209454E2
Track not present in AccurateRip database
Copy OK

Track 15

Filename C:\Various - Eccentric Soul- The Dynamic Label (2013) [FLAC]\15 - Webs - Don't Ever Hurt Me.wav

Pre-gap length 0:00:01.45

Peak level 92.5 %
Extraction speed 4.0 X
Track quality 100.0 %
Test CRC EA714762
Copy CRC EA714762
Track not present in AccurateRip database
Copy OK

Track 16

Filename C:\Various - Eccentric Soul- The Dynamic Label (2013) [FLAC]\16 - The Commands - Must Be Alright.wav

Pre-gap length 0:00:01.98

Peak level 83.6 %
Extraction speed 3.6 X
Track quality 100.0 %
Test CRC 777EF58B
Copy CRC 777EF58B
Track not present in AccurateRip database
Copy OK

Track 17

Filename C:\Various - Eccentric Soul- The Dynamic Label (2013) [FLAC]\17 - Bobby Blackmon & The Soul Express - She's Gotta Have Soul.wav

Pre-gap length 0:00:01.48

Peak level 86.4 %
Extraction speed 3.9 X
Track quality 100.0 %
Test CRC 1F3EC189
Copy CRC 1F3EC189
Track not present in AccurateRip database
Copy OK

Track 18

Filename C:\Various - Eccentric Soul- The Dynamic Label (2013) [FLAC]\18 - Doc & Sal - Laughing to Keep From Crying.wav

Pre-gap length 0:00:02.98

Peak level 98.8 %
Extraction speed 4.2 X
Track quality 100.0 %
Test CRC DBC23270
Copy CRC DBC23270
Track not present in AccurateRip database
Copy OK

Track 19

Filename C:\Various - Eccentric Soul- The Dynamic Label (2013) [FLAC]\19 - Webs - Try Loving Me.wav

Pre-gap length 0:00:01.97

Peak level 87.4 %
Extraction speed 4.4 X
Track quality 100.0 %
Test CRC 62E20228
Copy CRC 62E20228
Track not present in AccurateRip database
Copy OK

Track 20

Filename C:\Various - Eccentric Soul- The Dynamic Label (2013) [FLAC]\20 - The Commands - Too Late to Cry.wav

Pre-gap length 0:00:02.06

Peak level 84.1 %
Extraction speed 4.7 X
Track quality 100.0 %
Test CRC 1571AF52
Copy CRC 1571AF52
Track not present in AccurateRip database
Copy OK

Track 21

Filename C:\Various - Eccentric Soul- The Dynamic Label (2013) [FLAC]\21 - Doc & Sal - My Dream.wav

Pre-gap length 0:00:01.80

Peak level 82.3 %
Extraction speed 3.9 X
Track quality 99.9 %
Test CRC 1207016D
Copy CRC 1207016D
Track not present in AccurateRip database
Copy OK

None of the tracks are present in the AccurateRip database

No errors occurred

End of status report

==== Log checksum 84C3CF4C67E99E9161BE98DB3ACFD870916D2CFF14D906F4C4D7C43141CEB34C ====



DOWNLOAD
uploadgig


rapidgator


nitroflare

Related News

VA - Eccentric Soul: The Kris Label (2020) VA - Eccentric Soul: The Kris Label (2020)
Artist: VA Title: Eccentric Soul: The Kris Label Year Of Release: 2020 Label: Numero Group Genre:...
VA - The Soul & Funk Express! (2020) VA - The Soul & Funk Express! (2020)
Artist: VA Title: The Soul & Funk Express! Year Of Release: 2020 Label: Warner Music Group -...
VA - Essential Soul (2020) 320kbps/FLAC VA - Essential Soul (2020) 320kbps/FLAC
Artist: VA Title: Essential Soul Year Of Release: 2020 Label: Warner Music Group - X5 Music Group...
Various Artists - Romantic 70s Soul (2020) Various Artists - Romantic 70s Soul (2020)
Artist: Various Performers Title: Romantic 70s Soul Label: Warner Music Group - X5 Music Group...

System Comment

Information

Error Users of Visitor are not allowed to comment this publication.

Facebook Comment

Member Area
Top News