» » Stock Market Wolf - Wolf Pack Course

Stock Market Wolf - Wolf Pack Course

Tutorials   13-08-2019, 13:25   22   0   oaxino
Stock Market Wolf - Wolf Pack  Course

Stock Market Wolf - Wolf Pack Course
WEBRip | English | MP4 | 1920 x 984 | AVC ~1535 Kbps | 29.970 fps
AAC | 128 Kbps | 44.1 KHz | 2 channels | ~4 hours | 2.69 GB
Genre: eLearning Video / Trading, Stock
Become a stock market wolf. Our core trading system along with the necessary courses to diversify your skills to become a successful trader


Advanced Intro to Stock Market (10+ Chapters)
Advanced Fundamental and Technical Analysis
Advanced Risk Management and Trading Psychology

Trade, Profit, Repeat.
Achieve the FREEDOM you've always wanted!
Learn our Strategies and how we Trade the market to remain Profitable regardless of how the market is performing.
What is the Wolf Trading Strategy?
Developed over 10 years the Wolf trading strategy focuses on quality, high probability set ups in the market. Allowing the trader to maximize profits while minimizing the exposure.We teach you how to find these set ups and recognize market inequalities to capitalize on them.

Become a profitable trader
In a world full of sheep, be a Wolf.
Do you have what it takes to join the Wolf Pack ?

General
Complete name : 1. WOLFPACK TA 101 A.mp4
Format : MPEG-4
Format profile : Base Media
Codec ID : isom (isom/iso2/avc1/mp41)
File size : 1.04 GiB
Duration : 1 h 29 min
Overall bit rate mode : Variable
Overall bit rate : 1 668 kb/s
Movie name : wolf pack lesson 2-2017-12-27_01.00
Encoded date : UTC 2019-03-15 17:06:51
Tagged date : UTC 2019-03-15 17:06:51
Writing application : Lavf51.12.1

Video
ID : 1
Format : AVC
Format/Info : Advanced Video Codec
Format profile : High@L4
Format settings : CABAC / 1 Ref Frames
Format settings, CABAC : Yes
Format settings, RefFrames : 1 frame
Format settings, GOP : M=1, N=12
Codec ID : avc1
Codec ID/Info : Advanced Video Coding
Duration : 1 h 29 min
Bit rate mode : Variable
Bit rate : 1 535 kb/s
Width : 1 920 pixels
Height : 984 pixels
Display aspect ratio : 1.951
Frame rate mode : Constant
Frame rate : 29.970 (30000/1001) FPS
Color space : RGB
Chroma subsampling : 4:2:0
Bit depth : 8 bits
Scan type : Progressive
Bits/(Pixel*Frame) : 0.027
Stream size : 982 MiB (92%)
Encoded date : UTC 2019-03-15 17:06:51
Tagged date : UTC 2019-03-15 17:06:51
Color range : Limited
Matrix coefficients : Identity

Audio
ID : 2
Format : AAC
Format/Info : Advanced Audio Codec
Format profile : LC
Codec ID : mp4a-40-2
Duration : 1 h 29 min
Bit rate mode : Variable
Bit rate : 128 kb/s
Channel(s) : 2 channels
Channel positions : Front: L R
Sampling rate : 44.1 kHz
Frame rate : 43.066 FPS (1024 SPF)
Compression mode : Lossy
Stream size : 81.9 MiB (8%)
Encoded date : UTC 2019-03-15 17:06:51
Tagged date : UTC 2019-03-15 17:06:51

Screenshots


Stock Market Wolf - Wolf Pack  Course

Stock Market Wolf - Wolf Pack  Course

Stock Market Wolf - Wolf Pack  Course



Download link:

rapidgator_net:
https://rapidgator.net/file/42308607f1c06fe92d2354465754b4ad/bcqr9.Stock.Market.Wolf..Wolf.Pack.Course.part01.rar.html
https://rapidgator.net/file/861de389443b15b0e56b56ed190b0781/bcqr9.Stock.Market.Wolf..Wolf.Pack.Course.part02.rar.html
https://rapidgator.net/file/b37ae39f4f0c7a0feeb10d0f0e94c3af/bcqr9.Stock.Market.Wolf..Wolf.Pack.Course.part03.rar.html
https://rapidgator.net/file/e79b3647e2201c2a168c4dda5d953dbe/bcqr9.Stock.Market.Wolf..Wolf.Pack.Course.part04.rar.html
https://rapidgator.net/file/1655691605b73eb184a798443f222cc1/bcqr9.Stock.Market.Wolf..Wolf.Pack.Course.part05.rar.html
https://rapidgator.net/file/7b3600984ff77811377b53cd8238179f/bcqr9.Stock.Market.Wolf..Wolf.Pack.Course.part06.rar.html
https://rapidgator.net/file/3fc8480bb272716dbc6c0395c40742af/bcqr9.Stock.Market.Wolf..Wolf.Pack.Course.part07.rar.html
https://rapidgator.net/file/31a3bcbd4e6c575335c4dff4e273446e/bcqr9.Stock.Market.Wolf..Wolf.Pack.Course.part08.rar.html
https://rapidgator.net/file/633726ba34d464f83a8fa4d52a88ec2c/bcqr9.Stock.Market.Wolf..Wolf.Pack.Course.part09.rar.html
https://rapidgator.net/file/816ad27bd16e03fab6b4411f203c8cf8/bcqr9.Stock.Market.Wolf..Wolf.Pack.Course.part10.rar.html

nitroflare_com:
http://nitroflare.com/view/536BA7DF7BA823C/bcqr9.Stock.Market.Wolf..Wolf.Pack.Course.part01.rar
http://nitroflare.com/view/012106C4C7D5D71/bcqr9.Stock.Market.Wolf..Wolf.Pack.Course.part02.rar
http://nitroflare.com/view/5C32BD0FAEA1558/bcqr9.Stock.Market.Wolf..Wolf.Pack.Course.part03.rar
http://nitroflare.com/view/43AACFC452110C2/bcqr9.Stock.Market.Wolf..Wolf.Pack.Course.part04.rar
http://nitroflare.com/view/7A42224907D3B7B/bcqr9.Stock.Market.Wolf..Wolf.Pack.Course.part05.rar
http://nitroflare.com/view/88C82B8B3B1B017/bcqr9.Stock.Market.Wolf..Wolf.Pack.Course.part06.rar
http://nitroflare.com/view/4EA8528263F4D89/bcqr9.Stock.Market.Wolf..Wolf.Pack.Course.part07.rar
http://nitroflare.com/view/5CAFE69DACBBFA0/bcqr9.Stock.Market.Wolf..Wolf.Pack.Course.part08.rar
http://nitroflare.com/view/98D36FD8795C176/bcqr9.Stock.Market.Wolf..Wolf.Pack.Course.part09.rar
http://nitroflare.com/view/CA11CB46D070009/bcqr9.Stock.Market.Wolf..Wolf.Pack.Course.part10.rar

uploadgig_com:
http://uploadgig.com/file/download/dee764d86f4d5b51/bcqr9.Stock.Market.Wolf..Wolf.Pack.Course.part01.rar
http://uploadgig.com/file/download/1F4878e786c84Ff1/bcqr9.Stock.Market.Wolf..Wolf.Pack.Course.part02.rar
http://uploadgig.com/file/download/18634dD596Fe5f11/bcqr9.Stock.Market.Wolf..Wolf.Pack.Course.part03.rar
http://uploadgig.com/file/download/f7fF9bf980711B72/bcqr9.Stock.Market.Wolf..Wolf.Pack.Course.part04.rar
http://uploadgig.com/file/download/b6e69951c937351f/bcqr9.Stock.Market.Wolf..Wolf.Pack.Course.part05.rar
http://uploadgig.com/file/download/cEd885d3d9cD4022/bcqr9.Stock.Market.Wolf..Wolf.Pack.Course.part06.rar
http://uploadgig.com/file/download/7Aa7eadde538d243/bcqr9.Stock.Market.Wolf..Wolf.Pack.Course.part07.rar
http://uploadgig.com/file/download/dB24f376c06e8282/bcqr9.Stock.Market.Wolf..Wolf.Pack.Course.part08.rar
http://uploadgig.com/file/download/14999e0454fe06b7/bcqr9.Stock.Market.Wolf..Wolf.Pack.Course.part09.rar
http://uploadgig.com/file/download/fe348f9ce251a564/bcqr9.Stock.Market.Wolf..Wolf.Pack.Course.part10.rar


Links are Interchangeable - No Password - Single Extraction
Go Back
Your name: *
E-Mail:*
Bold Italic Underline Strike | Align left Center Align right | Insert smilies Insert link URLInsert protected URL Select color | Add Hidden Text Insert Quote Convert selected text from selection to Cyrillic (Russian) alphabet Insert spoiler
Security Code: *